Главная » ТВ-тюнеры PCTV Systems » PCTV Systems picoStick 74e

Внешний TV-тюнер PCTV Systems picoStick 74e

PCTV Systems picoStick 74e фото
— производитель: PCTV Systems (PCTV)
— модель: picoStick 74e
— внешний TV-тюнер, цифровой
— подключение к ПК через USB
— вывод HD-изображения
— в наличии
— гарантия 12 месяцев
— артикул FL-5796


Описание и инструкции PCTV Systems picoStick 74e



ADB-100T usb dongle dvb-t tuner
Witam.
Oto tuner DVB-T ADB-100T usb dongle ,który można dokupić do tunerów telewizji N.
Po modyfikacji sterowników działa na każdym PC.
Tuner działa wyśmienicie, nie grzeje się zbytnio, łapie zasięg taka samo jak TV LCD LG.
Jest to odpowiednik tunera PCTV picoStick (74e) - Hauppauge.
Tuner można kupić w bardzo atrakcyjnej cenie w tym sklepie,gdzie i ja go kupiłem:

Polecam.
Jedyną wadą jest to, że przy ponownym uruchomieniu komputera należy wyjąć tuner z USB i ponownie go włożyć.
DRIVER LINK: Neostar Mini Scart Freeview Digital TV Receiver & Recorder
Product link -
Key features -
- Receives up to 50 Freeview digital TV and 24 digital radio channels
- Records Freeview TV and radio stations direct to SD card (or USB memory stick or external hard drive)
- Pauses and rewinds all digital TV and radio channels
- On screen EPG -- program recordings up to 7 days in advance
- Easy to use menu system with automatic set-up
- Remote control with Infra Red sensor (for discreet positioning)
- Multimedia Player function: playback MPEG2 video/MP3 audio/DivX/JPEG files from SD card, memory stick or external hard drive to your TV
- Compact unit; measures only 10x2.5x6cm
- Discreet; plugs directly into your TV - no set-top box cluttering up your space!
Description -
Receive up to 74 subscription-free Freeview digital TV and radio channels and record them at a touch of button, all without the need for unsightly set-top boxes, with the Neostar TV Capture Mini Scart Freeview Receiver and Recorder.
TV Capture from Neostar Electronics is a compact unit that discreetly plugs into the Scart socket at the back of your TV. Not only does it receive up to 50 digital TV channels, including Film4, E4 and Sky News (as well as all the terrestrial channels -- BBC, ITV etc.), but it will record whatever you're watching or listening to direct to SD card, USB memory stick or external Hard Disc Drive (using USB slot).
Not only that, but as nature seems to call at the most inconvenient of times, you can also pause and rewind live TV, so never again will you miss whodunnit, whether she said "I do", that vital goal or the epic climax to a blockbuster film.
As the programs you record are stored on an SD card or USB memory stick/HDD, you can of course then watch them back on your TV at your convenience. If you order two TV Captures for two televisions you can even take the SD card out of one TV Capture and play the recording back on the other -- brilliant!
Plus, as recorded files are saved as MPEG2s you can play them back on your PC meaning you can catch up on the latest goings-on in the Square or Street wherever you are.
Additional 4GB and 8GB SD Cards and USB Memory Sticks are available to purchase separately.DVB-T2 Hamburg Rosengarten
DVB-T2 Testsignal Hamburg Rosengarten Kanal 48 mit DVBviewer aufgenommen und PCTV nanostick T2 290e
01-25_10-49-18_T2-Testsignal_.ts
--
General
ID : 220 (0xDC)
Complete name : C:UsersPublicVideos1-25_10-49-18_T2-Testsignal_.ts
Format : MPEG-TS
Format/Info : Advanced Video Codec
File size : 18.1 MiB
Duration : 1mn 15s
Overall bit rate : 2 012 Kbps

Video
ID : 2000 (0x7D0)
Menu ID : 35 (0x23)
Format : AVC
Format/Info : Advanced Video Codec
Format profile : Main@L3.0
Format settings, CABAC : Yes
Format settings, ReFrames : 3 frames
Format settings, GOP : M=3, N=15
Codec ID : 27
Duration : 1mn 16s
Bit rate mode : Variable
Bit rate : 1 848 Kbps
Maximum bit rate : 2 200 Kbps
Width : 720 pixels
Height : 576 pixels
Display aspect ratio : 4:3
Frame rate : 25.000 fps
Standard : PAL
Color space : YUV
Chroma subsampling : 4:2:0
Bit depth : 8 bits
Scan type : MBAFF
Bits/(Pixel*Frame) : 0.178
Stream size : 16.8 MiB (93%)
Color primaries : BT.601-6 525, BT.1358 525, BT.1700 NTSC, SMPTE 170M
Transfer characteristics : BT.601-6 525, BT.601-6 625, BT.1358 525, BT.1358 625, BT.1700 NTSC, SMPTE 170M
Matrix coefficients : BT.601-6 525, BT.1358 525, BT.1700 NTSC, SMPTE 170M

Audio
ID : 8001 (0x1F41)
Menu ID : 35 (0x23)
Format : MPEG Audio
Format version : Version 1
Format profile : Layer 2
Codec ID : 3
Duration : 1mn 15s
Bit rate mode : Constant
Bit rate : 64.0 Kbps
Channel(s) : 1 channel
Sampling rate : 48.0 KHz
Compression mode : Lossy
Video delay : -61ms
Stream size : 588 KiB (3%)
Language : English
Понравился обзор? Не забывайте ставить лайки и репосты!
1850 //
Теги: PCTV Systems picoStick 74e, внешний TV-тюнер, отзывы, фото, инструкция, видео, цена, обзор, купить PCTV Systems подключение к ПК через USB
Оценка PCTV Systems picoStick 74e на TV-Priem.ru: 2 из 5 на основании 265 голосов.

Индекс популярности этой модели:

Часто задаваемые вопросы, на которые мы устали отвечать:

  • Что идет в комплекте с PCTV Systems picoStick 74e?
  • Что означает цифровой внешний TV-тюнер? К чему и куда его подключать?
  • Помогите, я полный чайник, как включить picoStick 74e?
  • Хочу научиться правильно фотографировать, ищу фотошколу в Киеве или какие-то фотокурсы для новичков. Подскажите адреса.
  • Хочу иметь хороший приём ТВ сигнала. Видеозахват не нужен в принципе, самое главное качество приёма сигнала. Подойдет ли мне эта модель?
  • Срочно разыскивается родное программное обеспечение для PCTV Systems picoStick 74e. Поделитесь ссылочкой пожалуйста
  • Очень шумят некоторые каналы. Можно ли как-то исправить ситуацию?
  • Есть ли в нём поддержка стерео звука в NICAM и А2?
  • Нужно отремонтировать разъем питания, ищу адекватный сервис в Киеве. Цена ремонта?
  • Не могу разобраться с инструкцией ( manual-pctv-systems-picostick-74e.zip). Что такое DVB-T?
  • Изучил все модели PCTV Systems, перечитал отзывы, но всё равно не могу определиться. Какой PCMCIA TV-tuner выбрать?
  • Куплю бу PCTV Systems picoStick 74e или что-то аналогичное по характеристикам в Киеве. Срочно!

Обзор и впечатления PCTV Systems picoStick 74e

Другие модели PCTV Systems

PCTV Systems Diversity Stick Solo 2001e
PCTV Systems DVB-T Flash Stick 280e
PCTV Systems nanoStick 73e
PCTV Systems nanoStick T2 290e
PCTV Systems PCTV Analog Stick Plus
PCTV Systems PCTV Hybrid Pro Stick
PCTV Systems PCTV Stick 170e
PCTV Systems Quatro Stick
PCTV Systems PCTV Hybrid Pro PCI

Взгляните на похожие модели

Beholder Behold TV H75
Beholder Behold TV H75
Oriel 826 (DVB-T2)
Oriel 826 (DVB-T2)
iconBIT TV-HUNTER STUDIO LIVE
iconBIT TV-HUNTER STUDIO LIVE

Попробуйте найти

    Ссылка на эту страницу

    TV-Priem.ru ТВ-тюнеры PCTV Systems PCTV Systems picoStick 74e